EnglishFrenchSpanish

Free editor online | DOC > | XLS > | PPT >

Ad


OffiDocs favicon

Amerikan Gangster: image used with this song

Free download Amerikan Gangster: image used with this song free photo or picture to be edited with GIMP online image editor

This is the free photo or picture example named Amerikan Gangster: image used with this song for OffiDocs app Gimp, which can be considered as an online image editor or an online photo studio.

Ad


TAGS

Download or edit the free picture Amerikan Gangster: image used with this song for GIMP online editor. It is an image that is valid for other graphic or photo editors in OffiDocs such as Inkscape online and OpenOffice Draw online or LibreOffice online by OffiDocs.


From the Internet Archive, official website: archive.org. URL of this page: https://archive.org/details/Amerikan_Gangster_jpg (reserved characters encoded to HTML named entities: https://archive.org/details/Amerikan_Gangster_jpg)

Image extracted with ffmpeg -i "01 Amerikan Gangster.m4a" -map 0:1 -c copy Amerikan_Gangster.jpg, which returned this text: "[...]
Output #0, image2, to 'Amerikan_Gangster.jpg':
[...]".
So I guess the image is named image2? Tineye was the only reverse image
search of this image which returned anything (1 result, from
https://tineye.com/search/caf65ae2c9a2c81d9c87f8eaa30fbab7aa022a13?page=1):

"itunes.apple.com ["itunes.apple.com" linked to https://itunes.apple.com/us/album/freedom/id319308470]

us/album/freedom/id319308470
["us/album/freedom/id319308470" linked to
https://itunes.apple.com/us/album/freedom/id319308470] - First found on
May 29, 2012
gb/artist/public-enemy/id36954
["gb/artist/public-enemy/id36954" linked to
https://itunes.apple.com/gb/artist/public-enemy/id36954] - First found
on May 30, 2012

Filename: mzi.szpwlett.100x100-75.jpg
["mzi.szpwlett.100x100-75.jpg" loading="lazy" linked to
https://s5.mzstatic.com/us/r30/Music/f8/c2/1b/mzi.szpwlett.100x100-75.jpg]
(100 x 100, 6.5 KB)"

Hashes of this image file which has 176,987 bytes:
  • MD5: 49A134AAC4301468A5612E1F2A419C8F
  • SHA1: 770DECE6F34B208100E94AFC041B42623237A6A9
  • SHA-256: 44E5675E7BE7888C499BC1F99DF10FED380CA117769B39A80E9CE4E6ED838F8B

Hashes of the audio file which has 8,406,970 bytes:
  • MD5: 170458C7E117EA3D9BB4362C66528A46
  • SHA1: E953FA7319A01EB8AB5F1AD9AC23A367F42BCFC6
  • SHA-256: 469203C8D0CBFD41A3F9B4593972E9F9C37C835B2C8B7B84BB886DABD2838FC5

Properties of this JPG file:
Filesize in kilobytes: 172 KB or 173 KB
Dimensions: 600 x 600
Date modified in other format: 9/5/2019 12:12 AM
Date created in other format: 9/5/2019 12:12 AM
D:\\user\\Documents\\USB stick named UUI\\iTunes\\iTunes Media\\Music\\Public Enemy\\Amerikan Gangster - Single>ffprobe -i "01 Amerikan Gangster.m4a"
ffprobe version N-91990-g49c67e79ca Copyright (c) 2007-2018 the FFmpeg developers
built with gcc 8.2.1 (GCC) 20180813
configuration: --enable-gpl --enable-version3 --enable-sdl2 --enable-fontconfig --enable-gnutls --enable-iconv --enable-libass --enable-libbluray --enable-libfreetype --enable-libmp3lame --enable-libopencore-amrnb --enable-libopencore-amrwb --enable-libopenjpeg --enable-libopus --enable-libshine --enable-libsnappy --enable-libsoxr --enable-libtheora --enable-libtwolame --enable-libvpx --enable-libwavpack --enable-libwebp --enable-libx264 --enable-libx265 --enable-libxml2 --enable-libzimg --enable-lzma --enable-zlib --enable-gmp --enable-libvidstab --enable-libvorbis --enable-libvo-amrwbenc --enable-libmysofa --enable-libspeex --enable-libxvid --enable-libaom --enable-libmfx --enable-amf --enable-ffnvcodec --enable-cuvid --enable-d3d11va --enable-nvenc --enable-nvdec --enable-dxva2 --enable-avisynth
libavutil 56. 19.101 / 56. 19.101
libavcodec 58. 30.100 / 58. 30.100
libavformat 58. 18.101 / 58. 18.101
libavdevice 58. 4.103 / 58. 4.103
libavfilter 7. 32.100 / 7. 32.100
libswscale 5. 2.100 / 5. 2.100
libswresample 3. 2.100 / 3. 2.100
libpostproc 55. 2.100 / 55. 2.100
[mov,mp4,m4a,3gp,3g2,mj2 @ 000002905182d740] stream 0, timescale not set
Input #0, mov,mp4,m4a,3gp,3g2,mj2, from '01 Amerikan Gangster.m4a':
Metadata:
major_brand : M4A
minor_version : 0
compatible_brands: M4A mp42isom
creation_time : 2007-07-25T21:23:01.000000Z
tool : ?
iTunNORM : 00001E61 0000189B 0000F864 0000E98B 000000C4 000000C8 00008000 00008000 0000000C 00000012
iTunSMPB : 00000000 00000840 000003D3 0000000000A3EFED 00000000 00000000 00000000 00000000 00000000 00000000 00000000 00000000
title : Amerikan Gangster
artist : Public Enemy
album_artist : Public Enemy
genre : Hip Hop/Rap
track : 1/2
disc : 1/1
compilation : 0
gapless_playback: 0
date : 2007-07-09T07:00:00Z
account_id : [redacted by me (OddGrenadier)]
copyright : \u0393äù 2007 SLAMjamz
rating : 0
account_type : 0
media_type : 1
purchase_date : 2011-12-25 23:04:28
iTunMOVI :
:
:
:
: asset-info
:
: file-size
: 8406970
: flavor
: 2:256
:
:
:
:
Duration: 00:04:03.69, start: 0.047889, bitrate: 275 kb/s
Stream #0:0(und): Audio: aac (LC) (mp4a / 0x6134706D), 44100 Hz, stereo, fltp, 256 kb/s (default)
Metadata:
creation_time : 2007-07-25T21:23:01.000000Z
Stream #0:1: Video: mjpeg, yuvj444p(pc, bt470bg/unknown/unknown), 600x600 [SAR 72:72 DAR 1:1], 90k tbr, 90k tbn, 90k tbc

Properties of the M4A file from which this image was extracted:
Contributing artists: Public Enemy
Genre: Hip Hop/Rap
Length: 00:04:03
Year: 2007
Filesize in megabytes: 8.01 MB
Filesize in kilobytes: 8,210 KB
#: 1
Album artist: Public Enemy
Title: Amerikan Gangster
Bit rate: 255kbps
Date modified in other format: 6/22/2016 2:14 AM
Date created in other format: 12/28/2017 6:37 PM

Free picture Amerikan Gangster: image used with this song integrated with the OffiDocs web apps


Ad